Предлагается к переводу: кино про черных гангстеров, наркоту, разборки и шахматы.

Цена вопроса: 5100 р.

Подробные правила сборов читайте тут. Основные положения:

- Юзеры с лычками записываются на сбор кнопкой Записаться
- Юзеры без лычек могут только сразу скинуться
- Скидываться можно автоматом с личного счёта, нажав на кнопку Скинуться, или вручную на указанные в сборе кошельки
- При сбросе вручную сразу нужно отписаться в теме с пометкой когда, куда и сколько
- Участник, записавшийся на сбор, но потерявший возможность вложиться должен обязательно об этом отписаться в теме
- Не забываем про комиссию.

Реквизиты для сброса денег (для пользователей без лычек и не любящих ждать):
Сбербанк: 4276 5000 1284 3502
ЯД: 410011188345115
WM: P357131456415

Участники:


  1. dikii
  2. Pr0peLLer
  3. iVov4ik
  4. R.U. (191)

  5. kostasmen (41)

  6. mestereo2110 (200)

  7. red1905 (300)

  8. van156 (350)

  9. other_code (1200)

  10. Arengerok (250)

  11. Николаич (250)

  12. pav_163 (300)

  13. beatbybeattttt
    (600)
  14. Skvor
    (500)
  15. Valter5559




Комментарии

Закинул 250 через яндекс

0

Закинул 250 на ЯД, примерно в 13:41 по мск

0

Всех записал, спасибо.

0

Технический вопрос к инициатору сбора — а нормальный исходник видео/аудио (ну там, образ блюра или ремукс) в наличии или на примете имеется? А то на общедоступных ресурсах в сети только сильно бюджетные рипы(

0

Кому: iVov4ik

Так может, пусть сведущие люди скажут, какой самый годный источник есть на этот фильм?

0

В юзнете лежит немецкий диск без англосабов

 
DISC INFO:

Disc Title: FRESH
Disc Size: 32.449.784.340 bytes
Protection: AACS
BD-Java: No
Extras: 50Hz Content

PLAYLIST REPORT:

Name: 00000.MPLS
Length: 1:53:56.287 (h:m:s.ms)
Size: 30.418.722.816 bytes
Total Bitrate: 35,60 Mbps

VIDEO:

Codec Bitrate Description
—— ——- ————
MPEG-4 AVC Video 29886 kbps 1080p / 23,976 fps / 16:9 / High Profile 4.1

AUDIO:

Codec Language Bitrate Description
—— ——— ——- ————
DTS-HD Master Audio German 2005 kbps 2.0 / 48 kHz / 2005 kbps / 24-bit (DTS Core: 2.0 / 48 kHz / 1509 kbps / 24-bit)
DTS-HD Master Audio English 1754 kbps 2.0 / 48 kHz / 1754 kbps / 24-bit (DTS Core: 2.0 / 48 kHz / 768 kbps / 24-bit)

SUBTITLES:

Codec Language Bitrate Description
—— ——— ——- ————
Presentation Graphics German 27,038 kbps

0

Кому: iVov4ik

К сожалению у меня есть только те бюджетные рипы 1080, 720 и подогнанные английские субтитры с двд

0
 
General
Complete name : D:\Downloads\Downloads 2\Fresh.1994.1080p.BluRay.X264-AMIABLE\Fresh.1994.1080p.BluRay.X264-AMIABLE.mkv
Format : Matroska
Format version : Version 2
File size : 8.74 GiB
Duration : 1 h 53 min
Overall bit rate : 11.0 Mb/s
Writing application : mkvmerge v4.1.1 ("Bouncin" Back") built on Jul 3 2010 22:54:08
Writing library : libebml v1.0.0 + libmatroska v1.0

Video
ID : 1
Format : AVC
Format/Info : Advanced Video Codec
Format profile : High@L4.1
Format settings, CABAC : Yes
Format settings, RefFrames : 4 frames
Codec ID : V_MPEG4/ISO/AVC
Duration : 1 h 53 min
Bit rate : 9 479 kb/s
Width : 1 920 pixels
Height : 1 080 pixels
Display aspect ratio : 16:9
Frame rate mode : Constant
Frame rate : 23.976 (24000/1001) FPS
Color space : YUV
Chroma subsampling : 4:2:0
Bit depth : 8 bits
Scan type : Progressive
Bits/(Pixel*Frame) : 0.191
Stream size : 7.37 GiB (84%)
Writing library : x264 core 130 r2273 b3065e6
Encoding settings : cabac=1 / ref=4 / deblock=1:0:0 / analyse=0x3:0x113 / me=umh / subme=8 / psy=1 / psy_rd=1.00:0.00 / mixed_ref=1 / me_range=16 / chroma_me=1 / trellis=1 / 8x8dct=1 / cqm=0 / deadzone=21,11 / fast_pskip=1 / chroma_qp_offset=-2 / threads=12 / lookahead_threads=2 / sliced_threads=0 / nr=0 / decimate=1 / interlaced=0 / bluray_compat=0 / constrained_intra=0 / bframes=3 / b_pyramid=2 / b_adapt=2 / b_bias=0 / direct=3 / weightb=1 / open_gop=0 / weightp=2 / keyint=240 / keyint_min=24 / scenecut=40 / intra_refresh=0 / rc_lookahead=50 / rc=2pass / mbtree=1 / bitrate=9479 / ratetol=1.0 / qcomp=0.60 / qpmin=0 / qpmax=69 / qpstep=4 / cplxblur=20.0 / qblur=0.5 / ip_ratio=1.40 / aq=1:1.00
Language : English
Default : Yes
Forced : No

Audio
ID : 2
Format : DTS
Format/Info : Digital Theater Systems
Mode : 16
Format settings, Endianness : Big
Codec ID : A_DTS
Duration : 1 h 53 min
Bit rate mode : Constant
Bit rate : 1 509 kb/s
Channel(s) : 6 channels
Channel(s)_Original : 2 channels
Channel positions : Front: L R
Sampling rate : 48.0 kHz
Frame rate : 93.750 FPS (512 SPF)
Bit depth : 24 bits
Compression mode : Lossy
Stream size : 1.20 GiB (14%)
Language : English
Default : Yes
Forced : No

Menu
00:00:00.000 : en:00:00:00.000
00:08:52.824 : en:00:08:52.824
00:16:37.205 : en:00:16:37.205
00:26:41.683 : en:00:26:41.683
00:34:18.556 : en:00:34:18.556
00:46:42.800 : en:00:46:42.800
00:54:40.986 : en:00:54:40.986
01:05:01.314 : en:01:05:01.314
01:13:21.272 : en:01:13:21.272
01:20:15.644 : en:01:20:15.644
01:31:38.326 : en:01:31:38.326
01:48:37.094 : en:01:48:37.094

0

Кому: VazoR

> В юзнете лежит немецкий диск без англосабов

Еще бы найти того, кто смог бы его оттуда выкачать… Этот диск и на torrentleech лежит, только совсем без сидов.

ЗЫ. Всем откликнувшимся — спасибо за инфу!

0

Кому: iVov4ik

Почти докачал. Надеюсь соберётся нормально.

0

Скинул на ЯД 300р.в 18.16.через сбер

0

Кому: VazoR

Спасибо за звук! А ремуксом поделитесь? :sad:

0

Кому: pav_163

Спасибо :oops:

0

Кому: iVov4ik

 
Раз, Два, Три, Четыре
Отпишите, если всё скачается и соберётся. У себя пока не удаляю.
Положить все архивы (131 шт) в одну папку и распаковать. Пароль: SMY-pcRpUeSvg8zMTt2V8cth
0

15.06.2020 в 13:11 по мск на сбер 300 р.

0

Кому: red1905

Спасибо :oops:

0

| Регистрация

Авторизация
*
*
Регистрация
*
*
*
Генерация пароля