Die Hard: With a Vengeance_kyberpunk

Описание: Авторский перевод Михаила Яроцкого доступен благодаря mihey10, farivan, MrRose, Start.Point, Юрий Деточкин, dikii, Антиквар, СэМ, Artem_Jocker. Работа со звуком Переводман.

Скачать:






Только зарегистрированные пользователи могут видеть ссылки...




Комментарии

Качаться начнет, когда Переводман встанет на раздачу.

0

Кому: kyberpunk

Снимаю шляпу… Перевод — просто бомба!!! :grin:
Куда закидывать для четвёртой части?

0

Кому: MuxaJlbl4

НА 4-ю пока можно записаться вот здесь. http://perevodman.com/perevodosboryi/7773/

0

Спасибо! Душевно! Залупанец и заебанец войдут в анналы авторского перевода.

0

отличный фильм, до этого почему-то пропустил. отдельное спасибо за перевод, смотреть было интересно

0

Ребята! Помогите! Очень нужны дороги на Крепкий орешек 1,2,3. Может есть у кого? дайте скачать Пожалуйста!

0

Дайте пожалуйста скорости на flac всех пяти частей

0

помогите с дорожкой.
спасибо.

0

Осталась у кого дорога в хд, поделитесь, пожалуйста!

0

Кому: zav25

> Дорога: FLAC

Спасибо огромное. 4, 5 части не найдутся?

0

Кому: zav25

> Дорога: FLAC

Спасибо

0

Крепкий орешек 3: Возмездие 1995 — фан скан с 35 мм пленки, с убранной краснотой.
Подробности:

 
https://forum.fanres.com/thread-1814.html

Мой рип 1080p:

 
https://drive.google.com/a/my.smccd.edu/uc?id=1-MU9pSd0HD0_yj-PrmWDPakPsO2tWg1Q&export=download

Mediainfo:

 
Общее
Уникальный идентификатор : 331432039047152402065706767221127263590 (0xF9577D2578C282BF3581F6E609D23566)
Полное имя : O:\VIDEO_Temp\3. Крепкий орешек. Возмездие.RP.(1995).BDRip.1080p.mkv
Формат : Matroska
Версия формата : Version 4
Размер файла : 13,7 Гбайт
Продолжительность : 2 ч. 8 м.
Общий поток : 15,3 Мбит/сек
Дата кодирования : UTC 2018-11-28 20:49:21
Программа кодирования : mkvmerge v28.2.0 ("The Awakening") 64-bit
Библиотека кодирования : libebml v1.3.6 + libmatroska v1.4.9

Видео
Идентификатор : 1
Формат : AVC
Формат/Информация : Advanced Video Codec
Профиль формата : [email protected]
Настройки формата : CABAC / 5 Ref Frames
Параметр CABAC формата : Да
Параметр RefFrames формата : 5 кадров
Идентификатор кодека : V_MPEG4/ISO/AVC
Продолжительность : 2 ч. 8 м.
Битрейт : 11,5 Мбит/сек
Ширина : 1920 пикселей
Высота : 816 пикселей
Соотношение сторон : 2,35:1
Режим частоты кадров : Постоянный
Частота кадров : 23,976 (24000/1001) кадра/сек
Цветовое пространство : YUV
Субдискретизация насыщенности : 4:2:0
Битовая глубина : 8 бит
Тип развёртки : Прогрессивная
Бит/(Пиксели*Кадры) : 0.306
Размер потока : 10,3 Гбайт (75%)
Библиотека кодирования : x264 core 155 r2901 7d0ff22
Настройки программы : cabac=1 / ref=5 / deblock=1:-2:-2 / analyse=0x3:0x133 / me=tesa / subme=11 / psy=1 / psy_rd=1.00:0.00 / mixed_ref=1 / me_range=32 / chroma_me=1 / trellis=2 / 8x8dct=1 / cqm=0 / deadzone=21,11 / fast_pskip=0 / chroma_qp_offset=-2 / threads=12 / lookahead_threads=3 / sliced_threads=0 / nr=0 / decimate=1 / interlaced=0 / bluray_compat=0 / constrained_intra=0 / bframes=10 / b_pyramid=2 / b_adapt=2 / b_bias=0 / direct=3 / weightb=1 / open_gop=0 / weightp=2 / keyint=240 / keyint_min=24 / scenecut=40 / intra_refresh=0 / rc_lookahead=60 / rc=2pass / mbtree=1 / bitrate=11500 / ratetol=1.0 / qcomp=0.60 / qpmin=0 / qpmax=69 / qpstep=4 / cplxblur=20.0 / qblur=0.5 / vbv_maxrate=62500 / vbv_bufsize=78125 / nal_hrd=none / filler=0 / ip_ratio=1.40 / aq=1:1.00
Default : Да
Forced : Нет
Цветовой диапазон : Limited
Основные цвета : BT.709
Характеристики трансфера : BT.709
Коэффициенты матрицы : BT.709

Аудио #1
Идентификатор : 2
Формат : DTS
Формат/Информация : Digital Theater Systems
Идентификатор кодека : A_DTS
Продолжительность : 2 ч. 8 м.
Вид битрейта : Постоянный
Битрейт : 1510 Кбит/сек
Каналы : 6 каналов
Channel layout : C L R Ls Rs LFE
Частота : 48,0 КГц
Частота кадров : 93,750 кадра/сек (512 SPF)
Битовая глубина : 24 бит
Метод сжатия : С потерями
Размер потока : 1,36 Гбайт (10%)
Заголовок : AVO (kyberpunk) DTS 5.1
Язык : Russian
Default : Да
Forced : Нет

Аудио #2
Идентификатор : 3
Формат : DTS
Формат/Информация : Digital Theater Systems
Идентификатор кодека : A_DTS
Продолжительность : 2 ч. 8 м.
Вид битрейта : Постоянный
Битрейт : 1509 Кбит/сек
Каналы : 6 каналов
Channel layout : C L R Ls Rs LFE
Частота : 48,0 КГц
Частота кадров : 93,750 кадра/сек (512 SPF)
Битовая глубина : 16 бит
Метод сжатия : С потерями
Размер потока : 1,35 Гбайт (10%)
Заголовок : MVO (Kinomania) DTS 5.1
Язык : Russian
Default : Нет
Forced : Нет

Аудио #3
Идентификатор : 4
Формат : DTS
Формат/Информация : Digital Theater Systems
Идентификатор кодека : A_DTS
Продолжительность : 2 ч. 8 м.
Вид битрейта : Постоянный
Битрейт : 755 Кбит/сек
Каналы : 6 каналов
Channel layout : C L R Ls Rs LFE
Частота : 48,0 КГц
Частота кадров : 93,750 кадра/сек (512 SPF)
Битовая глубина : 24 бит
Метод сжатия : С потерями
Размер потока : 694 Мбайт (5%)
Заголовок : MVO (CEE) DTS 5.1 (768 kbps)
Язык : Russian
Default : Нет
Forced : Нет

Текст
Идентификатор : 5
Формат : PGS
Режим смешивания : zlib
Идентификатор кодека : S_HDMV/PGS
Идентификатор кодека/Информация : Picture based subtitle format used on BDs/HD-DVDs
Продолжительность : 1 ч. 53 м.
Битрейт : 289 бит/сек
ElementCount : 30
Размер потока : 240 Кбайт (0%)
Заголовок : forced
Язык : Russian
Default : Да
Forced : Нет

Меню
00:00:00.000 : :Chapter 1
00:00:53.887 : :Chapter 2
00:01:53.989 : :Chapter 3
00:03:50.981 : :Chapter 4
00:07:58.186 : :Chapter 5
00:09:09.466 : :Chapter 6
00:13:38.151 : :Chapter 7
00:16:53.596 : :Chapter 8
00:22:55.374 : :Chapter 9
00:27:32.526 : :Chapter 10
00:32:39.541 : :Chapter 11
00:37:31.583 : :Chapter 12
00:40:18.291 : :Chapter 13
00:43:39.117 : :Chapter 14
00:48:48.426 : :Chapter 15
00:52:04.413 : :Chapter 16
00:52:38.739 : :Chapter 17
00:56:09.825 : :Chapter 18
00:58:38.974 : :Chapter 19
01:02:57.232 : :Chapter 20
01:04:43.630 : :Chapter 21
01:07:44.852 : :Chapter 22
01:11:36.459 : :Chapter 23
01:17:05.246 : :Chapter 24
01:20:17.688 : :Chapter 25
01:21:17.581 : :Chapter 26
01:24:42.661 : :Chapter 27
01:27:43.341 : :Chapter 28
01:28:20.754 : :Chapter 29
01:31:47.752 : :Chapter 30
01:32:35.550 : :Chapter 31
01:34:18.987 : :Chapter 32
01:39:24.459 : :Chapter 33
01:40:45.331 : :Chapter 34
01:43:52.977 : :Chapter 35
01:47:53.676 : :Chapter 36
01:53:03.568 : :Chapter 37
01:55:59.536 : :Chapter 38
01:59:27.243 : :Chapter 39
02:00:27.429 : :Chapter 40

Позже добавлю HEVC 1080p меньшего размера.

0

Кому: vshtukarev

> Крепкий орешек 3: Возмездие 1995 — фан скан с 35 мм пленки, с убранной краснотой.

Интересно! А где эту версию можно скачать? По ссылке не увидел, где там раздача?

0

Кому: vshtukarev

> Крепкий орешек 3: Возмездие 1995 — фан скан с 35 мм пленки, с убранной краснотой.

Интересно, конечно. Но по мне слишком какая-то лучезарная картинка, эльфийская. ((:

0

Кому: perevodzulu1

> Интересно! А где эту версию можно скачать? По ссылке не увидел, где там раздача?

Я же положил ссылку на рип 1080p или трэба исходник?
К утру выложу.

0

Кому: vshtukarev

Спасибо за рип 1080p! :roll:

Не по теме,но если есть дороги в DTS

К Крепкий орешек 1,2.Буду очень признателен! :oops:

0

Кому: wer29Nzr2

> Не по теме,но если есть дороги в DTS
>
> К Крепкий орешек 1,2.Буду очень признателен!

Яроцкий на 5 частей DTS 1536 kbps

 
https://drive.google.com/drive/folders/18xLgw7jNXPqTb2G_df0teGmnj0fxqFlR
0

Кому: perevodzulu1

> Интересно! А где эту версию можно скачать? По ссылке не увидел, где там раздача?

DIE HARD WITH A VENGEANCE 1995 1080P [REGRADE] — 35 PROJECT
Исходник — русская озвучка отсутствует, но Яроцкий и дороги под CEE подходят без задержки.
22,3 Гб

 
https://drive.google.com/a/my.smccd.edu/uc?id=1Bi6o8K5cxy9O2I3asVQ7KaUv8UcWxqzY&export=download
0

Кому: vshtukarev

Спасибо! :oops:

0

Кому: vshtukarev

Яроцкий на 5 частей DTS 1536 kbps

Мега Спасибо!!! :roll: :oops: :oops: :oops:

0

Дайте скачать пожалуйста!

0

| Регистрация

Авторизация
*
*
Регистрация
*
*
*
Нажимая «Зарегистрироваться» вы соглашаетесь с Пользовательским соглашением
Генерация пароля